#TITLE:bbblow;
#SUBTITLE:;
#ARTIST:Onoken;
#TITLETRANSLIT:;
#SUBTITLETRANSLIT:;
#ARTISTTRANSLIT:;
#CREDIT:;
#BANNER:bbblow_logo.jpg;
#BACKGROUND:bbblow_bg.jpg;
#LYRICSPATH:;
#CDTITLE:Lan.png;
#MUSIC:bbblow.mp3;
#OFFSET:-0.020;
#SAMPLESTART:100.000;
#SAMPLELENGTH:12.000;
#SELECTABLE:YES;
#BPMS:0.000=160.000;
#STOPS:;
#BGCHANGES:;
// cache tags:
#FIRSTBEAT:7.500;
#LASTBEAT:340.000;
#SONGFILENAME:Songs/lan sky/bbblow/bbblow.sm;
#HASMUSIC:1;
#HASBANNER:1;
#MUSICLENGTH:128.800;
// end cache tags

//---------------dance-single - sky----------------
#NOTES:
     dance-single:
     sky:
     Challenge:
     11:
     1.000,1.000,1.000,0.054,0.846,783.000,258.000,7.000,0.000,5.000:




0000
0000
0000
0000
,
0000
0000
0000
0000
0000
0000
0000
0110
,
1002
0100
0000
0100
1000
0000
1000
0100
,
0023
0100
1000
0000
0000
0000
0000
0000
,
2130
0010
0000
0010
0100
0000
0100
0010
,
0000
0010
0100
0000
0000
0000
0000
0001
,
3000
0000
0001
0000
0000
0000
0101
1000
0100
0000
0001
0000
0000
0000
1001
0100
,
0000
0000
0001
0000
0000
0000
1001
0100
1000
0000
0001
0000
0000
0000
0011
1000
,
0000
0000
0001
0000
0000
0000
0011
0100
0010
0000
0001
0000
0000
0000
0011
0100
,
0000
0000
0001
0000
0000
0000
1001
0100
1000
0000
0001
0000
0000
0000
1001
0100
,
0000
0000
0001
0000
0110
0000
1001
0100
1010
0000
0001
0000
0110
0000
0101
1000
,
0110
0001
1010
0101
1100
0001
0110
1001
,
0110
0001
1010
0101
1100
0001
1010
0101
,
1100
0001
0110
1001
1100
0001
0110
1001
,
1100
0010
0001
0010
1100
0010
0001
0010
,
0110
1000
0100
0010
1001
0010
0100
0010
,
0101
0010
0100
1000
0101
0010
0100
1000
,
0101
0010
0001
0010
1100
0010
0001
0010
,
0101
1000
0100
0010
1001
0010
0100
1000
,
0101
0010
0100
0010
0101
0010
0100
1000
,
0101
0010
0100
0010
0101
0010
0100
1000
,
0101
0010
0100
0010
0001
0010
1100
1100
,
0012
0100
0000
1000
0100
0000
0010
0100
,
2003
0100
0010
0000
0000
0000
0000
0000
,
3100
0010
0001
0010
0100
1000
0100
0010
0001
0010
0100
1000
0100
1000
0100
0010
0001
0010
0100
1000
0100
0010
0001
0010
0100
0010
0001
0010
0100
1000
0100
0010
,
0001
0010
0100
1000
0100
0010
0100
0010
0001
0010
0100
1000
0100
0010
0001
0010
0100
0010
0001
0010
0100
1000
0100
0010
0001
0010
0100
1000
0100
1000
0100
1000
,
0111
0000
0111
0000
0111
1000
0100
0010
,
1100
0100
0100
1000
0011
0010
0010
0001
,
1010
0100
0100
0010
0101
0010
0010
0100
,
1010
0100
0100
0001
0110
0001
0001
0100
,
1010
0100
0100
0001
1010
0001
0001
0100
,
0110
1000
1000
0010
0101
0010
0010
0100
,
1000
1000
1001
1000
1000
1000
1001
1000
1100
0100
0101
0100
0100
0100
0101
0100
,
1010
0000
1010
0000
1010
0000
1010
0000
1010
1010
1010
1010
1010
1010
1010
1010
,
1010
0100
1100
0010
0110
0001
0110
1000
,
0110
0000
0001
0000
1010
0000
0100
0000
1000
0100
0010
0001
0010
0100
0010
0100
,
1001
0010
1100
0010
0110
0001
1010
0100
,
1010
0000
0001
0000
0110
0000
0001
0000
0100
0010
0100
0010
0001
0010
0100
1000
,
0101
0010
1100
0010
0110
0001
1010
0100
,
1010
0001
0101
0100
1100
0010
1001
0010
,
1100
0001
0110
1000
0101
0010
1100
0010
,
0101
0101
0101
0101
0101
0101
0101
0101
1010
1010
1010
1010
1010
1010
1010
1010
,
1010
0000
0001
0000
0100
0000
0010
0000
1000
0000
0000
0000
0100
0000
1000
0001
,
0001
0000
0100
0000
1000
0000
0000
0001
0001
0000
0010
0000
0010
0000
0000
0100
,
0100
0000
0010
0000
1000
0000
0010
0000
0100
0000
0000
0000
0010
0000
0100
0001
,
0001
0000
0010
0000
0100
0000
0000
0010
0010
0000
0100
0000
0100
0000
0000
0001
,
0001
0000
1000
0000
0110
0000
0000
0000
0010
0000
0000
0000
1100
0000
0000
0001
,
0001
0000
0000
0000
1100
0000
0000
0010
0010
0000
0100
0000
1100
0000
0000
0100
,
0100
0000
0000
0000
1010
0000
0000
0000
0010
0000
0000
0000
1100
0000
0000
0100
,
0100
0000
0000
0000
0110
0000
0000
0001
0001
0000
0100
0000
0110
0000
0000
1000
,
1000
0000
0011
1000
0100
0000
0110
0000
,
1000
0000
0000
0100
0011
0000
1000
0000
1000
0000
0000
0000
0110
0000
0000
0000
,
1000
0000
0101
0010
1000
0000
0110
0000
,
0001
0000
0000
0100
0011
0000
1000
0000
1000
0000
0000
0000
0110
0000
0000
1000
,
1000
0000
0101
0010
0010
0000
1010
0000
,
1000
0000
0000
0100
0011
0000
0001
0000
1000
0000
0000
0000
0110
0000
0000
0000
,
0001
0000
1100
0100
0100
0000
1010
0000
,
0101
0001
0001
1001
0001
0001
0101
0001
0101
0001
0001
0001
1001
0001
0001
0011
,
1011
0000
0100
0000
1000
0000
0100
0000
0010
0001
0010
0000
0001
0000
0000
0000
,
0100
0000
1000
0000
0100
0000
1000
0000
0100
0010
0100
0000
0000
0000
0001
0000
,
0000
0100
0010
0100
0000
0100
1000
0100
1000
0100
1000
0000
0001
0000
0001
0000
,
0010
0001
0010
0001
0010
0001
0010
0001
0010
0001
0010
0001
0010
0000
1000
0000
,
0100
0000
1000
0000
0010
0000
0100
0000
0001
0010
0001
0000
0100
0000
0000
0000
,
0010
0000
0100
0000
1000
0000
0100
0000
0001
0010
0001
0000
0000
0000
1000
0000
,
0100
0000
0000
1000
0000
0000
0010
0000
0010
0000
0000
0100
0000
0000
1000
0000
,
0100
0000
0010
0000
0100
1000
0100
0000
0010
0100
0010
0000
1000
0100
1000
0000
,
1000
0100
0010
0001
0010
0100
0010
0001
0010
0100
1000
0100
0010
0100
0010
0001
0010
0100
1000
0100
0010
0100
0010
0001
0010
0100
1000
0100
0010
0001
0010
0100
,
1010
0100
1100
0010
0101
1000
0110
0001
,
1100
0000
0000
0000
0010
0000
0000
0000
0101
0000
0000
0000
0010
0000
0000
0000
1000
0100
0010
0100
0010
0001
0010
0100
0010
0001
0010
0100
1000
0100
0010
0001
,
1100
0010
0101
0010
1100
0100
0110
0001
,
0110
0000
0000
0000
1000
0000
0000
0000
1010
0000
0000
0000
0100
0000
0000
0000
1000
0100
0010
0001
0010
0100
0010
0001
0010
0100
1000
0100
0010
0100
0010
0001
,
1100
0010
1001
0010
1100
0010
0101
0010
,
1100
0001
1010
0100
1010
0001
0110
0100
,
1100
0001
0110
0100
1010
0010
0101
0010
,
0101
0101
0101
0101
0101
0101
0101
0101
1010
1010
1010
1010
1010
1010
1010
1010
,
0101
0110
1010
0110
0011
1010
0110
0011
,
1010
0000
0000
0000
0110
0000
0000
0000
1010
0000
0000
0000
0011
0000
0000
0000
1000
0100
0010
0001
0010
0100
0010
0001
0010
0100
1000
0100
0010
0001
0010
0100
,
1010
0110
1100
0011
0101
1010
1001
0110
,
1100
0000
0000
0000
0110
0000
0000
0000
0011
0000
0000
0000
1010
0000
0000
0000
1000
0100
0010
0001
0010
0100
0010
0001
0010
0100
1000
0100
1000
0100
0010
0001
,
1100
0110
1001
0011
1010
0110
1010
0011
,
1010
1100
0011
0110
1010
0011
1010
0110
,
0011
1010
0110
1010
0110
0101
1100
0011
,
1100
1100
1100
1100
1100
1100
1100
1100
0011
0011
0011
0011
0011
0011
0011
0011
,
0011
0000
0000
2200
0000
0000
0000
0000
,
0000
0000
0000
0000
,
3300
0000
0000
0000
;

//---------------dance-single - sky----------------
#NOTES:
     dance-single:
     sky:
     Hard:
     11:
     1.000,1.000,1.000,0.054,0.854,783.000,225.000,7.000,0.000,5.000:

0000
0000
0000
0000
,
0000
0000
0000
0000
0000
0000
0000
0110
,
1002
0100
0000
0100
1000
0000
1000
0100
,
0023
0100
1000
0000
0000
0000
0000
0000
,
2130
0010
0000
0010
0100
0000
0100
0010
,
0000
0010
0100
0000
0000
0000
0000
0001
,
3000
0000
0001
0000
0000
0000
0101
1000
0100
0000
0001
0000
0000
0000
1001
0100
,
0000
0000
0001
0000
0000
0000
1001
0100
1000
0000
0001
0000
0000
0000
0011
1000
,
0000
0000
0001
0000
0000
0000
0011
0100
0010
0000
0001
0000
0000
0000
0011
0100
,
0000
0000
0001
0000
0000
0000
1001
0100
1000
0000
0001
0000
0000
0000
1001
0100
,
0000
0000
0001
0000
0110
0000
1001
0100
1010
0000
0001
0000
0110
0000
0101
1000
,
0110
0001
1010
0101
1100
0001
0110
1001
,
0110
0001
1010
0101
1100
0001
1010
0101
,
1100
0001
0110
1001
1100
0001
0110
1001
,
1100
0010
0001
0010
1100
0010
0001
0010
,
0110
1000
0100
0010
1001
0010
0100
0010
,
0101
0010
0100
1000
0101
0010
0100
1000
,
0101
0010
0001
0010
1100
0010
0001
0010
,
0101
1000
0100
0010
1001
0010
0100
1000
,
0101
0010
0100
0010
0101
0010
0100
1000
,
0101
0010
0100
0010
0101
0010
0100
1000
,
0101
0010
0100
0010
0001
0010
1100
1100
,
0012
0100
0000
1000
0100
0000
0010
0100
,
2003
0100
0010
0000
0000
0000
0000
0000
,
3100
0010
0001
0010
0100
1000
0100
0010
0001
0010
0100
1000
0100
1000
0100
0010
0001
0010
0100
1000
0100
0010
0001
0010
0100
0010
0001
0010
0100
1000
0100
0010
,
0001
0010
0100
1000
0100
0010
0100
0010
0001
0010
0100
1000
0100
0010
0001
0010
0100
0010
0001
0010
0100
1000
0100
0010
0001
0010
0100
1000
0100
1000
0100
1000
,
0111
0000
0111
0000
0111
1000
0100
0010
,
1100
0100
0100
1000
0011
0010
0010
0001
,
1010
0100
0100
0010
0101
0010
0010
0100
,
1010
0100
0100
0001
0110
0001
0001
0100
,
1010
0100
0100
0001
1010
0001
0001
0100
,
0110
1000
1000
0010
0101
0010
0010
0100
,
1000
0100
1001
0100
1000
0100
1001
0100
1100
0010
0101
0010
0100
0010
0101
0010
,
1010
0000
1010
0000
1010
0000
1010
0000
1001
0110
1001
0110
1001
0110
1001
0110
,
1001
0100
1100
0010
0110
0001
0110
1000
,
0110
0000
0001
0000
1010
0000
0100
0000
1000
0100
0010
0001
0010
0100
0010
0100
,
1001
0010
1100
0010
0110
0001
1010
0100
,
1010
0000
0001
0000
0110
0000
0001
0000
0100
0010
0100
0010
0001
0010
0100
1000
,
0101
0010
1100
0010
0110
0001
1010
0100
,
1010
0001
0101
0100
1100
0010
1001
0010
,
1100
0001
0110
1000
0101
0010
1100
0010
,
1001
0110
1001
0110
1001
0110
1001
0110
0110
1001
0110
1001
0110
1001
0110
1001
,
0110
0000
0001
0000
0100
0000
0010
0000
1000
0000
0000
0000
0100
0000
1000
0001
,
0001
0000
0100
0000
1000
0000
0000
0001
0001
0000
0010
0000
0010
0000
0000
0100
,
0100
0000
0010
0000
1000
0000
0010
0000
0100
0000
0000
0000
0010
0000
0100
0001
,
0001
0000
0010
0000
0100
0000
0000
0010
0010
0000
0100
0000
0100
0000
0000
0001
,
0001
0000
1000
0000
0110
0000
0000
0000
0010
0000
0000
0000
1100
0000
0000
0001
,
0001
0000
0000
0000
1100
0000
0000
0010
0010
0000
0100
0000
1100
0000
0000
0100
,
0100
0000
0000
0000
1010
0000
0000
0000
0010
0000
0000
0000
1100
0000
0000
0100
,
0100
0000
0000
0000
0110
0000
0000
0001
0001
0000
0100
0000
0110
0000
0000
1000
,
1000
0000
0011
1000
0100
0000
0110
0000
,
1000
0000
0000
0100
0011
0000
1000
0000
1000
0000
0000
0000
0110
0000
0000
0000
,
1000
0000
0101
0010
1000
0000
0110
0000
,
0001
0000
0000
0100
0011
0000
1000
0000
1000
0000
0000
0000
0110
0000
0000
1000
,
1000
0000
0101
0010
0010
0000
1010
0000
,
1000
0000
0000
0100
0011
0000
0001
0000
1000
0000
0000
0000
0110
0000
0000
0000
,
0001
0000
1100
0100
0100
0000
1010
0000
,
0101
0010
0001
1010
0001
0010
0101
0010
0101
0010
0001
0010
1001
0010
0001
0011
,
1011
0000
0100
0000
1000
0000
0100
0000
0010
0001
0010
0000
0000
0001
0000
0000
,
0100
0000
1000
0000
0100
0000
1000
0000
0100
0010
0100
0000
0000
0000
0001
0000
,
0000
0100
0010
0100
0000
0000
1000
0100
1000
0100
1000
0100
0001
0000
0001
0000
,
0010
0001
0010
0001
0010
0001
0010
0001
0010
0001
0010
0001
0010
0000
1000
0000
,
0100
0000
1000
0000
0010
0000
0100
0000
0001
0010
0001
0000
0000
0100
0000
0000
,
0010
0000
0100
0000
1000
0000
0100
0000
0001
0010
0001
0000
0000
0000
1000
0000
,
0100
0000
0000
1000
0000
0000
0010
0000
0010
0000
0000
0100
0000
0000
1000
0000
,
0100
0000
0010
0000
0100
1000
0100
0000
0010
0100
0010
0000
1000
0100
1000
0000
,
1000
0100
0010
0001
0010
0100
0010
0001
0010
0100
1000
0100
0010
0100
0010
0001
0010
0100
1000
0100
0010
0100
0010
0001
0010
0100
1000
0100
0010
0001
0010
0100
,
1010
0100
1100
0010
0101
1000
0110
0001
,
1100
0000
0000
0000
0010
0000
0000
0000
0101
0000
0000
0000
0010
0000
0000
0000
1000
0100
0010
0100
0010
0001
0010
0100
0010
0001
0010
0100
1000
0100
0010
0001
,
1100
0010
0101
0010
1100
0100
0110
0001
,
0110
0000
0000
0000
1000
0000
0000
0000
1010
0000
0000
0000
0100
0000
0000
0000
1000
0100
0010
0001
0010
0100
0010
0001
0010
0100
1000
0100
0010
0100
0010
0001
,
1100
0010
1001
0010
1100
0010
0101
0010
,
1100
0001
1010
0100
1010
0001
0110
0100
,
1100
0001
0110
0100
1010
0010
0101
0010
,
0001
0010
0001
0010
0001
0010
0001
0010
1000
0100
1000
0100
1000
0100
1000
0100
,
0101
0110
1010
0110
0011
1010
0110
0011
,
1010
0000
0000
0000
0110
0000
0000
0000
1010
0000
0000
0000
0011
0000
0000
0000
1000
0100
0010
0001
0010
0100
0010
0001
0010
0100
1000
0100
0010
0001
0010
0100
,
1010
0110
1100
0011
0101
1010
1001
0110
,
1100
0000
0000
0000
0110
0000
0000
0000
0011
0000
0000
0000
1010
0000
0000
0000
1000
0100
0010
0001
0010
0100
0010
0001
0010
0100
1000
0100
1000
0100
0010
0001
,
1100
0110
1001
0011
1010
0110
1010
0011
,
1010
1100
0011
0110
1010
0011
1010
0110
,
0011
1010
0110
1010
0110
0101
1100
0011
,
1000
0100
1000
0100
1000
0100
1000
0100
0010
0001
0010
0001
0010
0001
0010
0001
,
0010
0000
0000
2200
0000
0000
0000
0000
,
0000
0000
0000
0000
,
3300
0000
0000
0000
;
